Topic: Oasis - Cigarettes & Alcohol

+ MediaInfo

Video
ID                                       : 224 (0xE0)
Format                                   : MPEG Video
Format version                           : Version 2
Format profile                           : Main@Main
Format settings, BVOP                    : Yes
Format settings, Matrix                  : Custom
Duration                                 : 4mn 50s
Bit rate mode                            : Variable
Bit rate                                 : 5 111 Kbps
Maximum bit rate                         : 9 592 Kbps
Width                                    : 704 pixels
Height                                   : 576 pixels
Display aspect ratio                     : 4:3
Frame rate                               : 25.000 fps
Standard                                 : PAL
Color space                              : YUV
Chroma subsampling                       : 4:2:0
Bit depth                                : 8 bits
Scan type                                : Interlaced
Scan order                               : Top Field First
Compression mode                         : Lossy
Bits/(Pixel*Frame)                       : 0.504
Stream size                              : 177 MiB (92%)
Color primaries                          : BT.470-2 System B, BT.470-2 System G
Transfer characteristics                 : BT.470-2 System B, BT.470-2 System G
Matrix coefficients                      : BT.470-2 System B, BT.470-2 System G

Audio
ID                                       : 189 (0xBD)-128 (0x80)
Format                                   : AC-3
Format/Info                              : Audio Coding 3
Mode extension                           : CM (complete main)
Format settings, Endianness              : Big
Muxing mode                              : DVD-Video
Duration                                 : 4mn 50s
Bit rate mode                            : Constant
Bit rate                                 : 320 Kbps
Channel(s)                               : 2 channels
Channel positions                        : Front: L R
Sampling rate                            : 48.0 KHz
Bit depth                                : 16 bits
Compression mode                         : Lossy
Delay relative to video                  : -168ms
Stream size                              : 11.1 MiB (6%)

+ Скачать | Download