Topic: Depeche Mode - Little 15

+ MediaInfo

Video
ID                               : 224 (0xE0)
Format                           : MPEG Video
Format version                   : Version 2
Format profile                   : Main@Main
Format settings, BVOP            : Yes
Format settings, Matrix          : Custom
Duration                         : 4mn 16s
Bit rate mode                    : Variable
Bit rate                         : 4 574 Kbps
Maximum bit rate                 : 9 800 Kbps
Width                            : 720 pixels
Height                           : 576 pixels
Display aspect ratio             : 4:3
Frame rate                       : 25.000 fps
Standard                         : Component
Color space                      : YUV
Chroma subsampling               : 4:2:0
Bit depth                        : 8 bits
Scan type                        : Interlaced
Scan order                       : Top Field First
Compression mode                 : Lossy
Bits/(Pixel*Frame)               : 0.441
Stream size                      : 140 MiB (73%)
Color primaries                  : BT.470-2 System B, BT.470-2 System G
Transfer characteristics         : BT.470-2 System B, BT.470-2 System G
Matrix coefficients              : BT.470-2 System B, BT.470-2 System G

Audio
ID                               : 189 (0xBD)-160 (0xA0)
Format                           : PCM
Format settings, Endianness      : Big
Format settings, Sign            : Signed
Muxing mode                      : DVD-Video
Duration                         : 4mn 16s
Bit rate mode                    : Constant
Bit rate                         : 1 536 Kbps
Channel(s)                       : 2 channels
Channel positions                : Front: L R
Sampling rate                    : 48.0 KHz
Bit depth                        : 16 bits
Delay relative to video          : -271ms
Stream size                      : 47.0 MiB (25%)

+ Скачать | Download